当前位置:网站首页 > 影音图漫 > 推荐电影 > 正文

[2019][其他][喜剧][HD-1080P]愤怒的小鸟2 The.Angry.Birds.Movie.2.2019.1080p[1080P高清版][中英双字]

作者:流年风月日期:2019-10-28浏览:164分类:推荐电影

1.png

◎译  名 愤怒的小鸟2 / Angry Birds 2 / 愤怒的小鸟大电影2 / 愤怒鸟大电影2(港) / 愤怒鸟玩电影2(台)
◎片  名 The Angry Birds Movie 2
◎年  代 2019
◎产  地 芬兰 / 美国
◎类  别 喜剧 / 动画 / 冒险
◎语  言 英语
◎上映日期 2019-08-14(美国) / 2019-08-16(中国大陆)
◎IMDb评分 6.5/10 from 4645 users
◎IMDb链接 https://www.imdb.com/title/tt6095472
◎豆瓣评分 7.2/10 from 15287 users
◎豆瓣链接 https://movie.douban.com/subject/26863060/
◎片  长 96分钟
◎导  演 图鲁普·范·奥尔曼 Thurop Van Orman
◎编  剧 彼得·阿克曼 Peter Ackerman
◎主  演 杰森·苏戴奇斯 Jason Sudeikis
      比尔·哈德尔 Bill Hader
      乔什·加德 Josh Gad
      丹尼·麦克布莱德 Danny McBride
      彼特·丁拉基 Peter Dinklage
      妮琪·米娜 Nicki Minaj
      斯特林·K·布朗 Sterling K. Brown
      莱斯莉·琼斯 Leslie Jones
      奥卡菲娜 Awkwafina
      蕾切尔·布鲁姆 Rachel Bloom
      扎克·伍兹 Zach Woods
      欧赫尼奥·德尔维斯 Eugenio Derbez
      里尔·莱尔·哈瓦瑞 Lil Rel Howery
      德芙·卡梅隆 Dove Cameron
      贝克·班尼特 Beck Bennett
      布鲁克琳·普林斯 Brooklynn Prince
      阿尔玛·瓦萨诺 Alma Varsano
      菲丝·玛格丽特·基德曼-厄本 Faith Margaret Kidman-Urban
      桑迪·萝丝·厄本 Sunday Rose Urban
      吉妮西丝·坦尼翁 Genesis Tennon

◎标  签 动画 | 喜剧 | 搞笑 | 游戏改编 | 2019 | 美国 | 芬兰 | 经典手游

◎简  介

  十年“欢喜冤家”猪鸟依旧如往常一样“互相拆台”。然而,“不速之客”发射冰球袭击了小鸟岛和猪猪岛,令双方不得不放下芥蒂,小鸟岛昔日英雄胖红联合小鸟伙伴们与曾经的对手“捣蛋猪”雷纳德一行组建了临时联盟,他们将前往全新冰封岛屿上阻止神秘反派的灭世计划。

Video
ID                    : 1
Format                  : AVC
Format/Info               : Advanced Video Codec
Format profile              : [email protected]
Format settings             : CABAC / 4 Ref Frames
Format settings, CABAC          : Yes
Format settings, Reference frames    : 4 frames
Codec ID                 : VMPEG4/ISO/AVC
Duration                 : 1 h 36 min
Bit rate                 : 6 571 kb/s
Width                  : 1 920 pixels
Height                  : 1 040 pixels
Display aspect ratio           : 1.85:1
Frame rate mode             : Constant
Frame rate                : 23.976 (24000/1001) FPS
Color space               : YUV
Chroma subsampling            : 4:2:0
Bit depth                : 8 bits
Scan type                : Progressive
Bits/(Pixel*Frame)            : 0.137
Stream size               : 4.44 GiB (74%)
Title                  : The.Angry.Birds.Movie.2.2019.1080p.BluRay.x264.DTS-HD.MA.5.1-FGT
Writing library             : x264 core 158 r2984 3759fcb
Encoding settings            : cabac=1 / ref=4 / deblock=1:-3:-3 / analyse=0x3:0x113 / me=umh / subme=8 / psy=1 / psyrd=1.00:0.00 / mixedref=1 / merange=16 / chromame=1 / trellis=1 / 8x8dct=1 / cqm=0 / deadzone=21,11 / fastpskip=1 / chromaqpoffset=-2 / threads=24 / lookaheadthreads=4 / slicedthreads=0 / nr=0 / decimate=1 / interlaced=0 / bluraycompat=0 / constrainedintra=0 / bframes=3 / bpyramid=2 / badapt=1 / bbias=0 / direct=3 / weightb=1 / opengop=0 / weightp=2 / keyint=250 / keyintmin=23 / scenecut=40 / intrarefresh=0 / rclookahead=50 / rc=2pass / mbtree=1 / bitrate=6571 / ratetol=1.0 / qcomp=0.60 / qpmin=0 / qpmax=69 / qpstep=4 / cplxblur=20.0 / qblur=0.5 / ipratio=1.40 / aq=1:1.00
Language                 : English
Default                 : Yes
Forced                  : No

Audio
ID                    : 2
Format                  : DTS XLL
Format/Info               : Digital Theater Systems
Commercial name             : DTS-HD Master Audio
Codec ID                 : ADTS
Duration                 : 1 h 36 min
Bit rate mode              : Variable
Bit rate                 : 2 296 kb/s
Channel(s)                : 6 channels
Channel layout              : C L R Ls Rs LFE
Sampling rate              : 48.0 kHz
Frame rate                : 93.750 FPS (512 SPF)
Bit depth                : 16 bits
Compression mode             : Lossless
Stream size               : 1.55 GiB (26%)
Title                  : The.Angry.Birds.Movie.2.2019.1080p.BluRay.x264.DTS-HD.MA.5.1-FGT
Language                 : English
Default                 : Yes
Forced                  : No

Text #1
ID                    : 3
Format                  : UTF-8
Codec ID                 : STEXT/UTF8
Codec ID/Info              : UTF-8 Plain Text
Duration                 : 4 s 87 ms
Bit rate                 : 68 b/s
Count of elements            : 2
Stream size               : 35.0 Bytes (0%)
Title                  : English-FORCED-SRT
Language                 : English
Default                 : No
Forced                  : Yes

Text #2
ID                    : 4
Format                  : UTF-8
Codec ID                 : STEXT/UTF8
Codec ID/Info              : UTF-8 Plain Text
Duration                 : 1 h 33 min
Bit rate                 : 73 b/s
Count of elements            : 1791
Stream size               : 50.2 KiB (0%)
Title                  : English-SRT
Language                 : English
Default                 : Yes
Forced                  : No

Text #3
ID                    : 5
Format                  : PGS
Muxing mode               : zlib
Codec ID                 : SHDMV/PGS
Codec ID/Info              : Picture based subtitle format used on BDs/HD-DVDs
Duration                 : 1 h 34 min
Bit rate                 : 48.6 kb/s
Count of elements            : 3518
Stream size               : 32.9 MiB (1%)
Title                  : English-PGS
Language                 : English
Default                 : No
Forced                  : No


下载地址:

诚通云:https://tc5.us/file/19597823-404493348

飞猫云:http://www.fmpan.com/#/s/9xs2o6ay

无广告/干净云/直链/BT下载:

VIP访问内容

需开通青铜VIP及以上VIP等级才能访问此内容

加入永久VIP畅享全站资源无限制下载!

 

郑重声明:

本站所有内容均由互联网收集整理、网友上传,并且以计算机技术研究交流为目的,仅供大家参考、学习,不存在任何商业目的与商业用途。

若您需要商业运营或用于其他商业活动,请您购买正版授权并合法使用。 我们不承担任何技术及版权问题,且不对任何资源负法律责任。

如资源失效请留言联系站长,压缩文件请在电脑上用最新版的好压或者360压缩软件解压,请勿在线解压,手-机解压失败的勿扰。

友情小提示,网赚盘链接失效不补,要稳定请移步干净云或BTBT推荐用uTorrentBitComet下载。

 

本站统一解压密码:yuanjudao.com

 


欢迎 发表评论:

请填写验证码
享受更多资源下载可加入本站VIP会员!登录注册
登录
用户名
密码
注册
用户名
密码
确认密码
昵称
邮箱
QQ
验证码
找回密码
用户名
邮箱
※ 重置链接将发送到邮箱
请先 登录 再评论,若不是会员请先 注册